* Dettagli Torrent   globale  | Commenti (0) 


- Monamour - Tinto Brass (2006).H264.italian.Ac3-5.1.sub.ita.eng-MIRCrew -


Download via torrent:
Categoria bittorrent BDRip
Descrizione
Visitate mircrew-releases

Monamour - Tinto Brass (2006).H264.italian.Ac3-5.1.sub.ita.eng-MIRCrew


NO FOUND ONLY ORIGINAL RELEASE



My release is always in double track audio italian and Original audio
for select it use VLC or dvd player home
not use wmp

Monamour - Tinto Brass

(2006)









Genere erotico
Regia Tinto Brass
Sceneggiatura Tinto Brass, Massimiliano Zanin, Carla Cipriani
Fotografia Andrea Doria
Montaggio Tinto Brass
Musiche Heron Borelli



  * Anna Jimskaya: Marta
  * Max Parodi: Dario
  * Riccardo Marino: Leon
  * Nela Lucic: Silvia



Monamour è un film erotico del 2005, diretto dal regista Tinto Brass e liberamente ispirato al romanzo Amare Leon di Alina Rizzi. Il titolo del film (letteralmente: amore mio in lingua francese) gioca anche sull'incontro tra il vocabolo dialettale veneto mona (vagina) e il francese amour (amore)



Dario is a little publisher from Milano. He is joining the Mantova Festival Letteratura (Book fair) 2004. Marta, his unsatisfied wife, accompanies him. Leon is a French designer-photographer. While Dario is busy with his own business, Marta take a visit to the celebrated Palazzo Te; here under Giulio Romano's fresco representing Jupiter's erected penis she meets Leon. Immediately they become lovers and spend the entire book exhibitions' days making love almost everywhere. This liaison will have soon effects also on the regular one between Marta and Dario.  









General
Unique ID                                : 224953459991701732948476743793205958100 (0xA93C75E14E72D7E382746AB75FB9D5D4)
Complete name                            : Monamour - Tinto Brass (2006).ita.sub.eng-MIRCrewMonamour - Tinto Brass (2006).ita.sub.eng-MIRCrew.mkv
Format                                   : Matroska
Format version                           : Version 2
File size                                : 1.30 GiB
Duration                                 : 1h 38mn
Overall bit rate                         : 1 898 Kbps
Movie name                               : MIRCrew
Encoded date                             : UTC 2018-10-28T22:26:30Z
Writing application                      : mkvmerge v5.4.0 ('Piper&#39 built on Mar 10 2012 13:34:39
Writing library                          : Lavf55.12.0

Video
ID                                       : 1
Format                                   : AVC
Format/Info                              : Advanced Video Codec
Format profile                           : [email protected]
Format settings, CABAC                   : Yes
Format settings, ReFrames                : 4 frames
Codec ID                                 : V_MPEG4/ISO/AVC
Duration                                 : 1h 38mn
Bit rate                                 : 1 300 Kbps
Width                                    : 720 pixels
Height                                   : 384 pixels
Display aspect ratio                     : 1.875
Frame rate mode                          : Variable
Frame rate                               : 23.976 fps
Color space                              : YUV
Chroma subsampling                       : 4:2:0
Bit depth                                : 8 bits
Scan type                                : Progressive
Bits/(Pixel*Frame)                       : 0.196
Stream size                              : 903 MiB (68%)
Writing library                          : x264 core 142 r2479 dd79a61
Encoding settings                        : cabac=1 / ref=3 / deblock=1:0:0 / analyse=0x3:0x113 / me=hex / subme=7 / psy=1 / psy_rd=1.00:0.00 / mixed_ref=1 / me_range=16 / chroma_me=1 / trellis=1 / 8x8dct=1 / cqm=0 / deadzone=21,11 / fast_pskip=1 / chroma_qp_offset=-2 / threads=3 / lookahead_threads=1 / sliced_threads=0 / nr=0 / decimate=1 / interlaced=0 / bluray_compat=0 / constrained_intra=0 / bframes=3 / b_pyramid=2 / b_adapt=1 / b_bias=0 / direct=1 / weightb=1 / open_gop=0 / weightp=2 / keyint=240 / keyint_min=24 / scenecut=40 / intra_refresh=0 / rc_lookahead=40 / rc=abr / mbtree=1 / bitrate=1300 / ratetol=1.0 / qcomp=0.60 / qpmin=0 / qpmax=69 / qpstep=4 / vbv_maxrate=62500 / vbv_bufsize=78125 / nal_hrd=none / filler=0 / ip_ratio=1.40 / aq=1:1.00
Language                                 : Italian
Default                                  : Yes
Forced                                   : No
Color primaries                          : BT.601-6 525, BT.1358 525, BT.1700 NTSC, SMPTE 170M
Transfer characteristics                 : BT.709-5, BT.1361
Matrix coefficients                      : BT.601-6 525, BT.1358 525, BT.1700 NTSC, SMPTE 170M

Audio #1
ID                                       : 2
Format                                   : AC-3
Format/Info                              : Audio Coding 3
Mode extension                           : CM (complete main)
Codec ID                                 : A_AC3
Duration                                 : 1h 38mn
Bit rate mode                            : Constant
Bit rate                                 : 384 Kbps
Channel(s)                               : 6 channels
Channel positions                        : Front: L C R, Side: L R, LFE
Sampling rate                            : 48.0 KHz
Bit depth                                : 16 bits
Compression mode                         : Lossy
Delay relative to video                  : -5ms
Stream size                              : 270 MiB (20%)
Title                                    : Ita Ac3 5.1
Language                                 : Italian
Default                                  : Yes
Forced                                   : No



Info: Per scaricare devi usare un client come uTorrent o Transmission
AnnounceURL
udp://tracker.coppersurfer.tk:6969/announce
Hash afa12f10246ebfc93ac62542b66767306280e13b
Peers seeds: 66 , leech: 7
Size 1.31 GB
Completato 1996x
Aggiunto 07.11.18 - 12:11:36
Uploader   robbyrs
Votazione (Voti: 1)


Condividi questo bittorrent:


html/blog:


bbcode/forum:




Aggiungi Commento


counter